<svg xmlns="http://www.w3.org/2000/svg">
<defs>
<font
       horiz-adv-x="0"
       id="font470"
       horiz-origin-x="0"
       horiz-origin-y="0"
       vert-origin-x="45"
       vert-origin-y="90"
       vert-adv-y="90">
      <font-face
         descent="-232"
         units-per-em="1000"
         ascent="712"
         font-family="fnt2"
         id="font-face472" />
      <missing-glyph
         horiz-adv-x="1.1346e-306"
         id="missing-glyph474" />
      <glyph
         d="M-5,0L159,0L209,152L486,152L544,0L718,0L442,715L267,715L-5,0M450,272L252,272L329,500C332,509,340,542,350,599C359,547,366,515,370,503L450,272 Z"
         unicode="A"
         horiz-adv-x="713"
         id="glyph476" />
      <glyph
         d="M80,0L501,0L501,130L233,130L233,309L501,309L501,439L233,439L233,586L501,586L501,715L80,715L80,0 Z"
         unicode="E"
         horiz-adv-x="571"
         id="glyph478" />
      <glyph
         d="M80,0L233,0L233,299L543,299L543,0L696,0L696,715L543,715L543,428L233,428L233,715L80,715L80,0 Z"
         unicode="H"
         horiz-adv-x="775"
         id="glyph480" />
      <glyph
         d="M233,410L233,598L256,598C353,598,408,584,408,501C408,418,351,410,256,410L233,410M597,0L400,325C493,337,559,413,559,512C559,647,473,715,299,715L80,715L80,0L233,0L233,334L421,0L597,0 Z"
         unicode="R"
         horiz-adv-x="606"
         id="glyph482" />
      <glyph
         d="M347,585L523,585L523,715L19,715L19,585L194,585L194,0L347,0L347,585 Z"
         unicode="T"
         horiz-adv-x="542"
         id="glyph484" />
    </font>
    <font
       horiz-adv-x="0"
       id="font450"
       horiz-origin-x="0"
       horiz-origin-y="0"
       vert-origin-x="45"
       vert-origin-y="90"
       vert-adv-y="90">
      <font-face
         descent="-142"
         units-per-em="1000"
         ascent="626"
         font-family="fnt1"
         id="font-face452" />
      <missing-glyph
         horiz-adv-x="1.1346e-306"
         id="missing-glyph454" />
      <glyph
         d="M596,0L596,93L540,93L344,572L103,572L103,479L226,479L63,93L4,93L4,0L242,0L242,93L156,93L185,161L417,161L446,93L363,93L363,0L596,0M380,254L224,254L302,439L380,254 Z"
         unicode="A"
         horiz-adv-x="600"
         id="glyph456" />
      <glyph
         d="M551,0L551,209L458,209L458,93L219,93L219,245L325,245L325,179L418,179L418,403L325,403L325,337L219,337L219,479L458,479L458,360L551,360L551,572L50,572L50,479L127,479L127,93L48,93L48,0L551,0 Z"
         unicode="E"
         horiz-adv-x="600"
         id="glyph458" />
      <glyph
         d="M605,479L605,572L343,572L343,479L436,479L436,175L193,572L14,572L14,479L90,479L90,93L14,93L14,0L279,0L279,93L182,93L182,408L440,0L528,0L528,479L605,479 Z"
         unicode="N"
         horiz-adv-x="600"
         id="glyph460" />
      <glyph
         d="M566,285C566,426,478,583,302,583C136,583,36,438,36,283C36,83,174,-12,302,-12C401,-12,566,60,566,285M475,289C475,206,430,79,302,79C187,79,130,186,130,286C130,380,188,490,302,490C433,490,475,360,475,289 Z"
         unicode="O"
         horiz-adv-x="600"
         id="glyph462" />
      <glyph
         d="M578,0L578,93L503,93L388,245L427,257C479,273,521,333,521,404C521,463,495,519,442,549C407,569,363,572,322,572L50,572L50,479L125,479L125,93L46,93L46,0L291,0L291,93L217,93L217,227L294,227L382,105C406,72,428,35,444,0L578,0M430,403C430,324,351,320,307,320L217,320L217,479L341,479C366,479,430,476,430,403 Z"
         unicode="R"
         horiz-adv-x="600"
         id="glyph464" />
      <glyph
         d="M583,479L583,572L353,572L353,479L407,479L305,310L204,479L256,479L256,572L26,572L26,479L101,479L257,221L257,93L136,93L136,0L469,0L469,93L350,93L350,221L506,479L583,479 Z"
         unicode="Y"
         horiz-adv-x="600"
         id="glyph466" />
      <glyph
         d="M527,0L527,234L435,234L435,93L200,93L505,506L505,572L80,572L80,353L172,353L172,479L377,479L76,71L76,0L527,0 Z"
         unicode="Z"
         horiz-adv-x="600"
         id="glyph468" />
    </font>
    <font
       horiz-adv-x="0"
       id="font356"
       horiz-origin-x="0"
       horiz-origin-y="0"
       vert-origin-x="45"
       vert-origin-y="90"
       vert-adv-y="90">
      <font-face
         descent="-235"
         units-per-em="2048"
         ascent="962"
         font-family="fnt0"
         id="font-face358" />
      <missing-glyph
         horiz-adv-x="1.1346e-306"
         id="missing-glyph360" />
      <glyph
         d="M0 0 Z"
         unicode=" "
         horiz-adv-x="516"
         id="glyph362" />
      <glyph
         d="M281,340L205,1231Q205,1233,204,1236Q201,1271,201,1290Q201,1364,227,1405Q253,1446,299,1446Q342,1446,370,1406Q399,1367,399,1307Q399,1287,396,1242Q396,1235,395,1231L317,340L281,340M176,98Q176,150,211,183Q246,217,299,217Q350,217,385,183Q420,149,420,98Q420,49,383,12Q347,-25,299,-25Q249,-25,212,11Q176,48,176,98 Z"
         unicode="!"
         horiz-adv-x="598"
         id="glyph364" />
      <glyph
         d="M166,-274Q248,-201,282,-150Q317,-100,317,-57Q317,-18,255,3Q238,9,230,12Q177,31,152,60Q127,89,127,129Q127,174,157,201Q188,229,238,229Q309,229,356,169Q403,110,403,18Q403,-72,352,-152Q302,-233,199,-309L166,-274 Z"
         unicode=","
         horiz-adv-x="516"
         id="glyph366" />
      <glyph
         d="M137,109Q137,161,171,195Q206,229,258,229Q309,229,344,194Q379,159,379,109Q379,59,343,23Q307,-12,258,-12Q208,-12,172,23Q137,59,137,109 Z"
         unicode="."
         horiz-adv-x="516"
         id="glyph368" />
      <glyph
         d="M375,668Q547,854,596,936Q645,1019,645,1090Q645,1170,596,1219Q547,1268,465,1268Q404,1268,339,1232Q274,1196,193,1116L162,1141Q280,1278,372,1336Q464,1395,557,1395Q659,1395,722,1335Q786,1275,786,1180Q786,1086,731,998Q677,910,557,813Q720,799,813,702Q907,605,907,449Q907,257,771,117Q635,-23,440,-23Q292,-23,189,39Q86,101,86,182Q86,214,109,236Q132,258,164,258Q198,258,221,238Q244,218,279,147Q308,83,353,53Q399,23,465,23Q582,23,662,126Q743,230,743,383Q743,524,653,596Q564,668,389,668L375,668 Z"
         unicode="3"
         horiz-adv-x="1034"
         id="glyph370" />
      <glyph
         d="M315,592L754,592L526,1174L315,592M-59,0L-59,49L10,61Q70,72,135,263Q166,353,186,408L487,1196Q488,1198,489,1200Q496,1221,496,1231Q496,1241,492,1251Q489,1262,483,1272L465,1303Q510,1334,548,1373Q586,1412,618,1460L637,1460L1137,160Q1163,92,1193,70Q1224,49,1288,49L1288,0L752,0L752,49L815,57Q879,65,897,79Q915,93,915,123Q915,138,911,155Q908,173,901,191L776,532L295,532L190,248Q174,204,168,177Q162,151,162,131Q162,99,188,81Q214,64,279,53L322,47L322,0L-59,0 Z"
         unicode="A"
         horiz-adv-x="1236"
         id="glyph372" />
      <glyph
         d="M1300,500L1339,500L1339,33L1298,33L1262,108Q1258,115,1251,119Q1245,123,1239,123Q1229,123,1186,97Q985,-25,780,-25Q661,-25,551,14Q441,53,348,127Q216,234,152,377Q88,521,88,713Q88,845,126,964Q165,1083,238,1176Q336,1303,481,1374Q627,1446,788,1446Q938,1446,1088,1379Q1239,1313,1241,1313Q1265,1313,1279,1328Q1293,1343,1305,1384L1341,1384L1341,909L1298,909Q1273,1132,1144,1265Q1016,1399,829,1399Q607,1399,457,1204Q307,1010,307,711Q307,413,452,221Q597,29,813,29Q1003,29,1130,151Q1257,274,1300,500 Z"
         unicode="C"
         horiz-adv-x="1458"
         id="glyph374" />
      <glyph
         d="M113,0L113,47Q208,50,235,70Q262,90,262,182L262,209L262,1233Q262,1330,236,1351Q211,1372,127,1372L113,1372L113,1421L1141,1421L1243,1096L1200,1079Q1133,1186,1089,1237Q1046,1289,1001,1321Q960,1350,897,1362Q834,1374,680,1374L647,1374L471,1374L471,750Q500,749,526,748Q553,748,578,748Q763,748,829,802Q895,857,915,1010L950,1010L950,440L915,440Q894,592,829,646Q764,700,578,700L471,700L471,201Q471,105,503,76Q535,47,639,47L764,47Q941,47,1031,105Q1121,164,1255,383L1294,371L1219,0L113,0 Z"
         unicode="E"
         horiz-adv-x="1323"
         id="glyph376" />
      <glyph
         d="M659,1421L659,1374L618,1374Q538,1374,515,1353Q492,1332,492,1251L492,172Q492,87,514,67Q536,47,625,47L659,47L659,0L113,0L113,47L141,47Q232,47,256,68Q281,90,281,172L281,1251Q281,1335,260,1354Q239,1374,152,1374L113,1374L113,1421L659,1421 Z"
         unicode="I"
         horiz-adv-x="772"
         id="glyph378" />
      <glyph
         d="M113,0L113,49L127,49Q211,49,236,70Q262,91,262,190L262,209L262,1233Q262,1330,236,1351Q211,1372,127,1372L113,1372L113,1421L653,1421L653,1374Q534,1371,502,1343Q471,1316,471,1202L471,201Q471,105,503,76Q536,47,649,47L784,47Q975,47,1081,122Q1188,198,1331,457L1376,457L1262,0L113,0 Z"
         unicode="L"
         horiz-adv-x="1372"
         id="glyph380" />
      <glyph
         d="M471,659Q473,659,477,659Q537,655,565,655Q779,655,873,741Q967,827,967,1022Q967,1195,879,1286Q792,1378,629,1378Q541,1378,506,1347Q471,1316,471,1235L471,659M471,172Q471,98,501,73Q532,49,651,47L651,0L113,0L113,49L127,49Q211,49,236,70Q262,91,262,190L262,209L262,1276Q262,1327,235,1349Q209,1372,147,1372L113,1372L113,1421Q134,1420,155,1419Q176,1419,207,1419Q292,1419,411,1421Q530,1423,563,1423Q887,1423,1034,1326Q1182,1230,1182,1020Q1182,804,1036,704Q891,604,575,604Q552,604,526,604Q500,605,471,606L471,172 Z"
         unicode="P"
         horiz-adv-x="1241"
         id="glyph382" />
      <glyph
         d="M188,78L123,4L96,4L96,442L141,442Q155,251,260,141Q365,31,532,31Q663,31,753,115Q844,200,844,322Q844,490,542,601Q496,618,473,627Q292,696,214,790Q137,884,137,1028Q137,1207,258,1326Q380,1446,559,1446Q705,1446,848,1357Q886,1333,897,1333Q908,1333,923,1343Q938,1354,956,1374L985,1374L985,956L944,956Q913,1167,818,1281Q724,1395,582,1395Q467,1395,388,1313Q309,1232,309,1114Q309,1004,370,937Q432,870,612,805Q857,716,938,627Q1020,538,1020,393Q1020,210,890,93Q761,-23,555,-23Q461,-23,370,2Q279,27,188,78 Z"
         unicode="S"
         horiz-adv-x="1114"
         id="glyph384" />
      <glyph
         d="M866,172Q866,95,893,70Q920,45,993,45Q998,45,1011,46Q1025,47,1032,47L1032,0L492,0L492,47L524,47Q603,47,631,71Q659,96,659,172L659,1372L606,1372Q564,1372,513,1370Q462,1369,359,1364L293,1360Q231,1356,70,1113Q42,1071,27,1049L0,1067L82,1454Q136,1437,195,1429Q255,1421,354,1421L385,1421L1169,1421Q1269,1421,1329,1429Q1390,1437,1444,1454L1526,1067L1499,1049Q1487,1067,1464,1101Q1294,1356,1230,1360L1167,1364Q1064,1369,1013,1370Q962,1372,920,1372L866,1372L866,172 Z"
         unicode="T"
         horiz-adv-x="1523"
         id="glyph386" />
      <glyph
         d="M250,608L250,1241Q250,1331,223,1351Q196,1371,101,1374L100,1421L627,1421L627,1374L575,1374Q500,1374,479,1352Q459,1331,459,1251L459,401Q459,236,564,132Q669,29,836,29Q1048,29,1151,160Q1255,291,1255,559L1255,1184Q1255,1295,1222,1334Q1190,1374,1110,1374L1067,1374L1067,1421L1485,1421L1485,1374L1448,1374Q1375,1374,1345,1334Q1315,1295,1315,1184L1315,537Q1315,254,1183,114Q1052,-25,784,-25Q610,-25,486,33Q363,91,311,197Q278,264,264,350Q250,437,250,608 Z"
         unicode="U"
         horiz-adv-x="1546"
         id="glyph388" />
      <glyph
         d="M610,-29L82,1294Q67,1331,47,1349Q27,1367,-2,1370L-63,1374L-63,1421L492,1421L492,1374L428,1370Q363,1365,338,1348Q313,1331,313,1294Q313,1279,317,1262Q321,1245,330,1225L702,283L1039,1197Q1048,1223,1052,1243Q1057,1264,1057,1280Q1057,1330,1019,1351Q981,1372,883,1374L883,1421L1337,1421L1337,1374L1292,1366Q1214,1352,1179,1316Q1144,1281,1106,1180L651,-29L610,-29 Z"
         unicode="V"
         horiz-adv-x="1230"
         id="glyph390" />
      <glyph
         d="M72,1294Q59,1330,39,1347Q19,1364,-12,1368L-66,1374L-66,1421L479,1421L479,1372L418,1366Q344,1360,323,1344Q303,1329,303,1294Q303,1274,318,1230Q319,1226,319,1225L657,289L909,1030L807,1294Q792,1330,770,1348Q749,1367,721,1368L645,1372L645,1421L1214,1421L1214,1372L1140,1368Q1087,1365,1061,1347Q1036,1329,1036,1292Q1036,1277,1049,1237Q1052,1228,1053,1224L1354,289L1581,1094Q1584,1105,1591,1127Q1618,1221,1618,1260Q1618,1318,1581,1344Q1545,1370,1459,1372L1458,1421L1896,1421L1896,1374L1841,1364Q1774,1349,1741,1310Q1708,1272,1679,1180L1309,-29L1272,-29L938,940L610,-29L569,-29L72,1294 Z"
         unicode="W"
         horiz-adv-x="1773"
         id="glyph392" />
      <glyph
         d="M643,209L643,193Q643,92,670,70Q698,49,795,49L795,0L281,0L281,49L295,49Q380,49,406,70Q432,92,432,199L432,209L432,643L70,1274Q38,1329,5,1350Q-27,1372,-78,1375L-78,1421L432,1421L432,1375Q353,1372,322,1358Q291,1344,291,1311Q291,1300,295,1287Q300,1275,309,1262L618,733L864,1157Q898,1215,911,1246Q924,1278,924,1300Q924,1340,897,1357Q871,1375,801,1381L801,1421L1163,1421L1163,1374Q1053,1367,963,1212Q955,1198,950,1190L643,678L643,209 Z"
         unicode="Y"
         horiz-adv-x="1058"
         id="glyph394" />
      <glyph
         d="M551,172L551,481Q362,409,290,354Q219,300,219,233Q219,171,263,130Q308,90,375,90Q413,90,451,107Q490,125,551,172M545,121Q469,49,401,13Q333,-23,270,-23Q184,-23,131,27Q78,78,78,160Q78,270,179,351Q280,432,557,532L557,737Q557,801,529,830Q502,860,442,860Q367,860,311,827Q256,794,256,745Q256,653,233,615Q210,578,156,578Q120,578,99,598Q78,618,78,653Q78,737,221,829Q364,922,508,922Q621,922,668,864Q715,807,715,623L715,129Q715,103,726,88Q737,74,756,74Q778,74,792,92Q806,111,809,143L848,143Q839,65,797,23Q756,-18,686,-18Q625,-18,588,18Q551,54,545,121 Z"
         unicode="a"
         horiz-adv-x="878"
         id="glyph396" />
      <glyph
         d="M326,731L326,301Q326,152,379,88Q432,25,551,25Q679,25,760,144Q842,263,842,451Q842,628,761,735Q680,842,549,842Q486,842,430,814Q375,787,326,731M170,1167Q170,1233,151,1262Q132,1291,76,1313L76,1337Q136,1355,195,1379Q254,1404,311,1436L326,1436L326,797Q406,861,477,888Q549,915,631,915Q801,915,906,791Q1012,668,1012,467Q1012,249,886,115Q761,-18,557,-18Q430,-18,287,34Q252,47,244,47Q238,47,232,42Q227,37,221,27L199,-16L170,-16L170,1167 Z"
         unicode="b"
         horiz-adv-x="1087"
         id="glyph398" />
      <glyph
         d="M850,268Q790,128,694,52Q598,-23,479,-23Q307,-23,191,110Q76,243,76,446Q76,651,198,786Q321,922,506,922Q637,922,735,851Q834,781,834,690Q834,660,810,638Q787,616,756,616Q695,616,665,734Q661,749,659,756Q642,820,610,847Q579,874,524,874Q401,874,320,770Q240,666,240,506Q240,328,330,212Q420,96,553,96Q637,96,704,143Q771,190,819,283L850,268 Z"
         unicode="c"
         horiz-adv-x="909"
         id="glyph400" />
      <glyph
         d="M770,174L770,504Q770,685,709,776Q649,868,528,868Q407,868,332,758Q258,649,258,471Q258,302,345,191Q432,80,561,80Q622,80,674,103Q726,127,770,174M770,1167Q770,1239,747,1267Q724,1296,662,1309L662,1335Q728,1354,790,1379Q852,1404,911,1436L930,1436L930,170Q930,135,945,119Q961,103,1024,86L1024,63Q945,40,890,21Q836,3,791,-14L772,-14L772,121Q707,48,633,11Q560,-25,479,-25Q315,-25,202,109Q90,243,90,442Q90,659,210,787Q331,915,530,915Q580,915,639,904Q698,894,770,872L770,1167 Z"
         unicode="d"
         horiz-adv-x="1114"
         id="glyph402" />
      <glyph
         d="M618,662Q654,662,671,677Q688,692,688,723Q688,788,634,831Q581,874,498,874Q408,874,342,818Q277,762,250,662L618,662M864,608L242,608Q234,550,230,516Q227,482,227,457Q227,305,327,204Q427,104,575,104Q683,104,767,161Q851,219,889,317L928,305Q879,151,764,62Q650,-27,500,-27Q317,-27,195,100Q74,228,74,422Q74,648,196,784Q319,920,526,920Q674,920,787,833Q901,746,901,649Q901,627,893,617Q885,608,864,608 Z"
         unicode="e"
         horiz-adv-x="995"
         id="glyph404" />
      <glyph
         d="M383,158Q383,79,407,59Q432,39,502,39L543,39L543,0L98,0L99,39Q182,42,205,63Q229,84,229,190L229,780L82,780L104,864L229,864L229,950Q229,1177,327,1306Q425,1436,592,1436Q687,1436,748,1389Q809,1342,809,1274Q809,1237,787,1214Q766,1192,729,1192Q695,1192,674,1207Q653,1222,633,1262Q600,1326,576,1345Q552,1364,516,1364Q442,1364,412,1298Q383,1232,383,1004L383,864L606,864L582,780L383,780L383,158 Z"
         unicode="f"
         horiz-adv-x="661"
         id="glyph406" />
      <glyph
         d="M272,-39Q226,-67,201,-110Q176,-154,176,-209Q176,-307,249,-357Q323,-408,467,-408Q662,-408,760,-360Q858,-312,858,-217Q858,-137,800,-101Q742,-65,610,-63L438,-63Q376,-63,341,-57Q306,-52,272,-39M471,365Q554,365,600,432Q647,499,647,618Q647,738,600,806Q553,874,471,874Q387,874,340,806Q293,739,293,618Q293,499,340,432Q387,365,471,365M309,340Q265,316,244,285Q223,255,223,215Q223,149,280,121Q338,94,504,92L615,90Q792,87,878,26Q965,-35,965,-158Q965,-305,837,-380Q710,-455,457,-455Q261,-455,156,-398Q51,-342,51,-238Q51,-169,97,-114Q143,-60,238,-16Q180,18,152,58Q125,98,125,147Q125,204,161,255Q197,307,274,360Q208,407,174,469Q141,532,141,610Q141,746,230,833Q320,920,461,920Q539,920,600,900Q662,880,723,836Q761,868,799,885Q838,903,870,903Q911,903,934,882Q958,861,958,825Q958,802,941,785Q925,768,901,768Q879,768,843,793Q807,819,784,819Q772,819,762,817Q753,815,743,811Q775,762,790,715Q805,669,805,618Q805,483,712,399Q620,315,471,315Q437,315,398,321Q359,327,309,340 Z"
         unicode="g"
         horiz-adv-x="964"
         id="glyph408" />
      <glyph
         d="M82,0L82,38Q149,41,172,65Q195,89,195,190L195,1167Q195,1234,176,1261Q157,1289,100,1313L100,1337Q161,1355,219,1379Q278,1404,336,1436L348,1436L348,758Q419,844,487,883Q556,922,639,922Q788,922,858,821Q928,720,928,504L928,141Q928,71,943,57Q959,44,1040,39L1040,0L668,0L668,39Q730,40,752,60Q774,80,774,166L774,176L774,510Q774,691,729,760Q685,829,580,829Q507,829,449,792Q391,756,348,684L348,158Q348,78,370,58Q392,39,461,39L461,0L82,0 Z"
         unicode="h"
         horiz-adv-x="1103"
         id="glyph410" />
      <glyph
         d="M166,1329Q166,1375,196,1405Q226,1436,272,1436Q317,1436,348,1405Q379,1374,379,1329Q379,1287,347,1255Q315,1223,272,1223Q229,1223,197,1254Q166,1286,166,1329M365,920L365,158Q365,78,387,58Q409,39,477,39L477,0L90,0L91,39Q159,42,180,66Q201,90,201,190L201,651Q201,718,182,745Q163,773,106,797L106,821Q167,839,225,863Q284,888,342,920L365,920 Z"
         unicode="i"
         horiz-adv-x="561"
         id="glyph412" />
      <glyph
         d="M80,0L80,39Q153,42,173,66Q193,90,193,190L193,1167Q193,1236,173,1262Q154,1288,98,1313L98,1337Q159,1355,217,1379Q276,1404,334,1436L348,1436L348,508L643,733Q664,750,677,768Q690,786,690,799Q690,829,616,841Q600,844,589,846L524,858L524,895L979,895L979,858Q848,829,756,757Q753,755,752,754L549,596L891,162Q942,96,988,67Q1035,39,1090,39L1090,0L627,0L627,39L678,45Q708,50,722,60Q737,71,737,88Q737,97,733,104Q730,112,723,121L430,510L348,446L348,158Q348,77,369,58Q391,39,459,39L459,0L80,0 Z"
         unicode="k"
         horiz-adv-x="1067"
         id="glyph414" />
      <glyph
         d="M358,158Q358,77,380,58Q402,39,469,39L469,0L90,0L91,39Q160,42,181,66Q203,90,203,190L203,1167Q203,1236,183,1262Q164,1288,109,1313L109,1337Q169,1355,227,1379Q286,1404,344,1436L358,1436L358,158 Z"
         unicode="l"
         horiz-adv-x="555"
         id="glyph416" />
      <glyph
         d="M94,0L95,39Q163,42,184,67Q205,93,205,190L205,651Q205,716,186,744Q167,772,109,797L109,821Q169,839,227,863Q286,888,344,920L354,920L354,758Q425,847,492,884Q559,922,649,922Q746,922,814,872Q883,823,909,735Q978,834,1047,878Q1117,922,1204,922Q1287,922,1352,881Q1417,840,1456,764Q1474,731,1481,688Q1489,646,1489,561L1489,504L1489,119Q1489,74,1511,57Q1533,41,1599,39L1599,0L1235,0L1235,38Q1297,40,1317,60Q1337,81,1337,176L1337,551Q1337,700,1291,763Q1246,827,1141,827Q1074,827,1016,786Q959,745,922,670L922,119Q922,74,944,57Q966,41,1034,39L1034,0L668,0L668,39L676,39Q732,39,752,64Q772,90,772,176L772,553Q772,699,725,763Q678,827,573,827Q507,827,450,786Q393,746,354,670L354,158Q354,79,376,59Q398,39,465,39L465,0L94,0 Z"
         unicode="m"
         horiz-adv-x="1662"
         id="glyph418" />
      <glyph
         d="M90,39Q170,45,186,62Q203,80,203,166L203,190L201,651Q201,718,182,745Q163,773,106,797L106,821Q170,841,227,865Q285,889,342,920L360,920L356,758Q433,848,499,885Q566,922,647,922Q796,922,865,822Q934,722,934,504L934,115Q934,72,950,58Q967,44,1048,39L1049,0L674,0L674,39Q747,44,763,56Q780,69,780,115L780,176L780,553Q780,695,733,762Q686,829,586,829Q514,829,457,793Q400,757,356,684L356,158Q356,76,378,57Q400,39,467,39L467,0L90,0L90,39 Z"
         unicode="n"
         horiz-adv-x="1114"
         id="glyph420" />
      <glyph
         d="M492,25Q608,25,674,138Q741,251,741,449Q741,648,675,759Q609,870,492,870Q375,870,308,758Q242,646,242,449Q242,249,308,137Q375,25,492,25M913,449Q913,236,796,105Q680,-25,492,-25Q303,-25,187,105Q72,235,72,449Q72,662,187,791Q302,920,492,920Q681,920,797,790Q913,661,913,449 Z"
         unicode="o"
         horiz-adv-x="983"
         id="glyph422" />
      <glyph
         d="M346,766L346,420Q346,202,397,115Q449,29,569,29Q693,29,778,139Q864,250,864,416Q864,600,770,720Q676,840,537,840Q488,840,443,822Q398,805,346,766M346,-283Q346,-358,372,-380Q399,-403,498,-403L498,-440L78,-440L78,-403Q152,-399,171,-383Q190,-368,190,-305L190,-250L190,651Q190,716,171,744Q152,772,94,797L94,821Q155,839,213,863Q272,888,330,920L346,920L346,817Q412,866,479,889Q547,913,621,913Q805,913,915,792Q1026,671,1026,467Q1026,258,888,117Q751,-23,545,-23Q495,-23,446,-14Q398,-6,346,12L346,-283 Z"
         unicode="p"
         horiz-adv-x="1114"
         id="glyph424" />
      <glyph
         d="M91,39Q161,42,182,66Q203,91,203,190L203,651Q203,718,183,745Q163,772,106,797L106,821Q175,844,233,868Q291,892,342,920L356,920L356,772Q403,846,459,886Q515,926,571,926Q620,926,648,899Q676,872,676,825Q676,792,656,771Q636,750,606,750Q585,750,541,767Q498,784,473,784Q437,784,404,760Q372,736,356,696L356,158Q356,76,380,57Q405,39,500,39L500,0L90,0L91,39 Z"
         unicode="r"
         horiz-adv-x="688"
         id="glyph426" />
      <glyph
         d="M102,45L102,297L143,297Q172,151,224,87Q276,23,362,23Q441,23,491,74Q541,126,541,205Q541,265,505,309Q469,353,365,408Q201,491,157,545Q113,600,113,678Q113,784,193,852Q274,920,403,920Q468,920,530,902Q593,885,653,850L653,633L612,633Q598,745,536,813Q474,881,389,881Q321,881,279,845Q238,809,238,750Q238,665,364,596Q373,591,379,588Q395,579,429,561Q692,420,692,262Q692,137,596,57Q500,-23,350,-23Q285,-23,222,-5Q160,12,102,45 Z"
         unicode="s"
         horiz-adv-x="792"
         id="glyph428" />
      <glyph
         d="M221,793L106,793L106,813Q177,865,240,922Q303,980,360,1044L377,1044L377,895L678,895L625,793L377,793L377,270Q377,167,409,123Q442,80,516,80Q552,80,594,101Q637,122,678,160L696,137Q646,61,577,20Q509,-20,430,-20Q316,-20,268,44Q221,108,221,313L221,793 Z"
         unicode="t"
         horiz-adv-x="755"
         id="glyph430" />
      <glyph
         d="M915,895L915,201Q915,135,932,119Q950,104,1010,100L1010,76Q957,58,899,36Q842,14,774,-14L760,-14L760,139Q685,47,619,11Q554,-25,467,-25Q380,-25,314,15Q248,55,215,127Q197,166,189,214Q182,263,182,360L182,393L182,776Q182,823,162,838Q142,854,68,858L68,895L336,895L336,383Q336,196,381,132Q426,68,537,68Q604,68,662,109Q721,151,760,227L760,737Q760,814,740,836Q720,858,659,858L649,858L649,895L915,895 Z"
         unicode="u"
         horiz-adv-x="1101"
         id="glyph432" />
      <glyph
         d="M422,-18L127,766Q108,816,81,833Q55,851,-2,854L-2,895L414,895L414,854L391,854Q331,854,307,843Q283,833,283,809Q283,802,287,786Q291,770,299,745L506,186L752,745Q758,761,761,774Q764,788,764,801Q764,822,747,834Q730,847,696,850L643,854L643,895L946,895L946,854Q855,844,792,702Q783,682,778,671L467,-18L422,-18 Z"
         unicode="v"
         horiz-adv-x="935"
         id="glyph434" />
      <glyph
         d="M135,748Q111,811,85,831Q59,852,6,855L6,895L401,895L401,854L340,850Q311,848,296,837Q281,827,281,809Q281,798,284,783Q288,768,297,745L512,190L698,672L670,748Q647,806,618,829Q589,853,541,854L541,895L920,895L920,854L873,850Q845,848,830,837Q815,826,815,809Q815,800,818,785Q822,771,829,745L1008,203L1214,745Q1221,761,1224,774Q1227,788,1227,801Q1227,822,1212,834Q1197,846,1165,850L1116,854L1116,895L1405,895L1405,855Q1348,847,1319,824Q1291,802,1266,735L969,-18L928,-18L721,600L475,-18L432,-18L135,748 Z"
         unicode="w"
         horiz-adv-x="1417"
         id="glyph436" />
      <glyph
         d="M-24,858L-25,895L412,895L412,858L363,854Q308,851,287,839Q266,827,266,801Q266,793,270,782Q274,771,283,755L569,217L741,731Q746,746,749,762Q752,778,752,793Q752,830,722,844Q693,858,604,858L604,895L950,895L950,858Q885,852,857,831Q829,811,801,733L467,-211L465,-217Q386,-442,281,-442Q240,-442,216,-417Q193,-393,193,-352Q193,-318,216,-295Q240,-272,276,-272Q287,-272,310,-277Q334,-283,346,-283Q372,-283,388,-269Q404,-256,416,-223L502,23L106,748Q71,813,44,834Q17,855,-24,858 Z"
         unicode="y"
         horiz-adv-x="933"
         id="glyph438" />
      <glyph
         d="M57,0L57,12L610,854L434,854L416,854Q277,854,227,814Q177,775,115,655L72,664L139,895L819,895L819,883L268,45L461,45Q581,45,623,53Q666,61,684,82Q716,117,755,175Q794,233,827,297L858,283L795,0L57,0 Z"
         unicode="z"
         horiz-adv-x="913"
         id="glyph440" />
      <glyph
         d="M174,944Q254,1016,289,1066Q324,1117,324,1161Q324,1201,261,1222Q244,1228,235,1231Q183,1250,159,1277Q135,1305,135,1346Q135,1390,166,1418Q197,1446,246,1446Q316,1446,363,1386Q410,1327,410,1235Q410,1145,359,1064Q308,983,205,907L174,944 Z"
         unicode="’"
         horiz-adv-x="516"
         id="glyph442" />
      <glyph
         d="M735,1411Q653,1337,618,1287Q584,1237,584,1194Q584,1154,647,1133Q662,1128,672,1124Q724,1105,749,1076Q774,1048,774,1008Q774,963,743,935Q713,907,664,907Q593,907,545,967Q498,1027,498,1118Q498,1207,549,1288Q600,1369,705,1446L735,1411M350,1411Q270,1339,235,1288Q201,1238,201,1194Q201,1154,264,1133Q279,1128,289,1124Q341,1105,366,1076Q391,1048,391,1008Q391,963,360,935Q330,907,281,907Q210,907,162,967Q115,1027,115,1118Q115,1208,165,1289Q216,1370,319,1446L350,1411 Z"
         unicode="“"
         horiz-adv-x="901"
         id="glyph444" />
      <glyph
         d="M557,944Q639,1018,674,1068Q709,1118,709,1161Q709,1201,646,1222Q629,1228,620,1231Q568,1250,543,1278Q518,1306,518,1346Q518,1390,549,1418Q580,1446,629,1446Q700,1446,747,1386Q795,1326,795,1235Q795,1146,743,1065Q692,984,588,907L557,944M174,944Q254,1016,289,1066Q324,1117,324,1161Q324,1201,261,1222Q244,1228,235,1231Q183,1250,159,1277Q135,1305,135,1346Q135,1390,166,1418Q197,1446,246,1446Q316,1446,363,1386Q410,1327,410,1235Q410,1145,359,1064Q308,983,205,907L174,944 Z"
         unicode="”"
         horiz-adv-x="901"
         id="glyph446" />
      <glyph
         d="M0,379L0,516L1024,516L1024,379L0,379 Z"
         unicode="–"
         horiz-adv-x="1024"
         id="glyph448" />
    </font>
    <linearGradient
       inkscape:collect="always"
       xlink:href="#linearGradient16923"
       id="linearGradient6975"
       gradientUnits="userSpaceOnUse"
       x1="573.97998"
       y1="469.20001"
       x2="282.12"
       y2="278.45001" />
    <linearGradient
       inkscape:collect="always"
       xlink:href="#linearGradient16923"
       id="linearGradient6977"
       gradientUnits="userSpaceOnUse"
       x1="573.97998"
       y1="469.20001"
       x2="282.12"
       y2="278.45001" />
    <linearGradient
       inkscape:collect="always"
       xlink:href="#linearGradient16923"
       id="linearGradient6979"
       gradientUnits="userSpaceOnUse"
       x1="573.97998"
       y1="469.20001"
       x2="282.12"
       y2="278.45001" />
    <linearGradient
       y2="66.657997"
       x2="75.293999"
       gradientTransform="translate(16.599,43.996)"
       y1="108.14"
       gradientUnits="userSpaceOnUse"
       x1="183.53"
       id="linearGradient16734">
      <stop
         offset="0"
         id="stop2947" />
      <stop
         offset="1"
         stop-opacity="0"
         id="stop2949" />
    </linearGradient>
    <radialGradient
       r="88.914001"
       gradientTransform="matrix(-1.2655,-1.1718,0.75356,-0.81383,293.49,396.38)"
       cx="153.78999"
       cy="94.921997"
       gradientUnits="userSpaceOnUse"
       id="radialGradient16732">
      <stop
         offset="0"
         stop-color="#fff"
         id="stop2939" />
      <stop
         offset="1"
         stop-opacity="0"
         stop-color="#fff"
         id="stop2941" />
    </radialGradient>
    <linearGradient
       y2="306.79001"
       x2="144.88"
       gradientTransform="matrix(0.86831,0,0,0.86831,11.62,38.064)"
       y1="236.67999"
       gradientUnits="userSpaceOnUse"
       x1="139.16"
       id="linearGradient16730">
      <stop
         offset="0"
         stop-color="#276615"
         id="stop6500" />
      <stop
         offset="1"
         stop-color="#12310a"
         id="stop6502" />
    </linearGradient>
    <linearGradient
       y2="259.84"
       x2="126.64"
       gradientTransform="matrix(0.86831,0,0,0.86831,11.62,28.171)"
       y1="30.75"
       gradientUnits="userSpaceOnUse"
       x1="134.19"
       id="linearGradient16728">
      <stop
         offset="0"
         stop-color="#9ed9ff"
         id="stop11833" />
      <stop
         offset="1"
         stop-opacity="0"
         stop-color="#9ed9ff"
         id="stop11835" />
    </linearGradient>
    <linearGradient
       id="linearGradient16728-0"
       x1="134.19"
       gradientUnits="userSpaceOnUse"
       y1="30.75"
       gradientTransform="matrix(0.86831,0,0,0.86831,11.62,28.171)"
       x2="126.64"
       y2="259.84">
      <stop
         id="stop11833-5"
         stop-color="#9ed9ff"
         offset="0" />
      <stop
         id="stop11835-4"
         stop-color="#9ed9ff"
         stop-opacity="0"
         offset="1" />
    </linearGradient>
    <linearGradient
       id="linearGradient16730-4"
       x1="139.16"
       gradientUnits="userSpaceOnUse"
       y1="236.67999"
       gradientTransform="matrix(0.86831,0,0,0.86831,11.62,38.064)"
       x2="144.88"
       y2="306.79001">
      <stop
         id="stop6500-4"
         stop-color="#276615"
         offset="0" />
      <stop
         id="stop6502-6"
         stop-color="#12310a"
         offset="1" />
    </linearGradient>
    <radialGradient
       id="radialGradient16732-1"
       gradientUnits="userSpaceOnUse"
       cy="94.921997"
       cx="153.78999"
       gradientTransform="matrix(-1.2655,-1.1718,0.75356,-0.81383,293.49,396.38)"
       r="88.914001">
      <stop
         id="stop2939-6"
         stop-color="#fff"
         offset="0" />
      <stop
         id="stop2941-5"
         stop-color="#fff"
         stop-opacity="0"
         offset="1" />
    </radialGradient>
    <linearGradient
       id="linearGradient16734-5"
       x1="183.53"
       gradientUnits="userSpaceOnUse"
       y1="108.14"
       gradientTransform="translate(16.599,43.996)"
       x2="75.293999"
       y2="66.657997">
      <stop
         id="stop2947-3"
         offset="0" />
      <stop
         id="stop2949-0"
         stop-opacity="0"
         offset="1" />
    </linearGradient>
    <linearGradient
       y2="278.45001"
       x2="282.12"
       y1="469.20001"
       x1="573.97998"
       gradientUnits="userSpaceOnUse"
       id="linearGradient6979-8"
       xlink:href="#linearGradient16923-4"
       inkscape:collect="always" />
    <linearGradient
       y2="278.45001"
       x2="282.12"
       y1="469.20001"
       x1="573.97998"
       gradientUnits="userSpaceOnUse"
       id="linearGradient6977-1"
       xlink:href="#linearGradient16923-4"
       inkscape:collect="always" />
    <linearGradient
       y2="278.45001"
       x2="282.12"
       y1="469.20001"
       x1="573.97998"
       gradientUnits="userSpaceOnUse"
       id="linearGradient6975-5"
       xlink:href="#linearGradient16923-4"
       inkscape:collect="always" />
    <font
       vert-adv-y="90"
       vert-origin-y="90"
       vert-origin-x="45"
       horiz-origin-y="0"
       horiz-origin-x="0"
       id="font356-2"
       horiz-adv-x="0">
      <font-face
         id="font-face358-9"
         font-family="fnt0"
         ascent="962"
         units-per-em="2048"
         descent="-235" />
      <missing-glyph
         id="missing-glyph360-2"
         horiz-adv-x="1.1346e-306" />
      <glyph
         id="glyph362-4"
         horiz-adv-x="516"
         unicode=" "
         d="M0 0 Z" />
      <glyph
         id="glyph364-8"
         horiz-adv-x="598"
         unicode="!"
         d="M281,340L205,1231Q205,1233,204,1236Q201,1271,201,1290Q201,1364,227,1405Q253,1446,299,1446Q342,1446,370,1406Q399,1367,399,1307Q399,1287,396,1242Q396,1235,395,1231L317,340L281,340M176,98Q176,150,211,183Q246,217,299,217Q350,217,385,183Q420,149,420,98Q420,49,383,12Q347,-25,299,-25Q249,-25,212,11Q176,48,176,98 Z" />
      <glyph
         id="glyph366-3"
         horiz-adv-x="516"
         unicode=","
         d="M166,-274Q248,-201,282,-150Q317,-100,317,-57Q317,-18,255,3Q238,9,230,12Q177,31,152,60Q127,89,127,129Q127,174,157,201Q188,229,238,229Q309,229,356,169Q403,110,403,18Q403,-72,352,-152Q302,-233,199,-309L166,-274 Z" />
      <glyph
         id="glyph368-9"
         horiz-adv-x="516"
         unicode="."
         d="M137,109Q137,161,171,195Q206,229,258,229Q309,229,344,194Q379,159,379,109Q379,59,343,23Q307,-12,258,-12Q208,-12,172,23Q137,59,137,109 Z" />
      <glyph
         id="glyph370-3"
         horiz-adv-x="1034"
         unicode="3"
         d="M375,668Q547,854,596,936Q645,1019,645,1090Q645,1170,596,1219Q547,1268,465,1268Q404,1268,339,1232Q274,1196,193,1116L162,1141Q280,1278,372,1336Q464,1395,557,1395Q659,1395,722,1335Q786,1275,786,1180Q786,1086,731,998Q677,910,557,813Q720,799,813,702Q907,605,907,449Q907,257,771,117Q635,-23,440,-23Q292,-23,189,39Q86,101,86,182Q86,214,109,236Q132,258,164,258Q198,258,221,238Q244,218,279,147Q308,83,353,53Q399,23,465,23Q582,23,662,126Q743,230,743,383Q743,524,653,596Q564,668,389,668L375,668 Z" />
      <glyph
         id="glyph372-0"
         horiz-adv-x="1236"
         unicode="A"
         d="M315,592L754,592L526,1174L315,592M-59,0L-59,49L10,61Q70,72,135,263Q166,353,186,408L487,1196Q488,1198,489,1200Q496,1221,496,1231Q496,1241,492,1251Q489,1262,483,1272L465,1303Q510,1334,548,1373Q586,1412,618,1460L637,1460L1137,160Q1163,92,1193,70Q1224,49,1288,49L1288,0L752,0L752,49L815,57Q879,65,897,79Q915,93,915,123Q915,138,911,155Q908,173,901,191L776,532L295,532L190,248Q174,204,168,177Q162,151,162,131Q162,99,188,81Q214,64,279,53L322,47L322,0L-59,0 Z" />
      <glyph
         id="glyph374-8"
         horiz-adv-x="1458"
         unicode="C"
         d="M1300,500L1339,500L1339,33L1298,33L1262,108Q1258,115,1251,119Q1245,123,1239,123Q1229,123,1186,97Q985,-25,780,-25Q661,-25,551,14Q441,53,348,127Q216,234,152,377Q88,521,88,713Q88,845,126,964Q165,1083,238,1176Q336,1303,481,1374Q627,1446,788,1446Q938,1446,1088,1379Q1239,1313,1241,1313Q1265,1313,1279,1328Q1293,1343,1305,1384L1341,1384L1341,909L1298,909Q1273,1132,1144,1265Q1016,1399,829,1399Q607,1399,457,1204Q307,1010,307,711Q307,413,452,221Q597,29,813,29Q1003,29,1130,151Q1257,274,1300,500 Z" />
      <glyph
         id="glyph376-9"
         horiz-adv-x="1323"
         unicode="E"
         d="M113,0L113,47Q208,50,235,70Q262,90,262,182L262,209L262,1233Q262,1330,236,1351Q211,1372,127,1372L113,1372L113,1421L1141,1421L1243,1096L1200,1079Q1133,1186,1089,1237Q1046,1289,1001,1321Q960,1350,897,1362Q834,1374,680,1374L647,1374L471,1374L471,750Q500,749,526,748Q553,748,578,748Q763,748,829,802Q895,857,915,1010L950,1010L950,440L915,440Q894,592,829,646Q764,700,578,700L471,700L471,201Q471,105,503,76Q535,47,639,47L764,47Q941,47,1031,105Q1121,164,1255,383L1294,371L1219,0L113,0 Z" />
      <glyph
         id="glyph378-2"
         horiz-adv-x="772"
         unicode="I"
         d="M659,1421L659,1374L618,1374Q538,1374,515,1353Q492,1332,492,1251L492,172Q492,87,514,67Q536,47,625,47L659,47L659,0L113,0L113,47L141,47Q232,47,256,68Q281,90,281,172L281,1251Q281,1335,260,1354Q239,1374,152,1374L113,1374L113,1421L659,1421 Z" />
      <glyph
         id="glyph380-5"
         horiz-adv-x="1372"
         unicode="L"
         d="M113,0L113,49L127,49Q211,49,236,70Q262,91,262,190L262,209L262,1233Q262,1330,236,1351Q211,1372,127,1372L113,1372L113,1421L653,1421L653,1374Q534,1371,502,1343Q471,1316,471,1202L471,201Q471,105,503,76Q536,47,649,47L784,47Q975,47,1081,122Q1188,198,1331,457L1376,457L1262,0L113,0 Z" />
      <glyph
         id="glyph382-1"
         horiz-adv-x="1241"
         unicode="P"
         d="M471,659Q473,659,477,659Q537,655,565,655Q779,655,873,741Q967,827,967,1022Q967,1195,879,1286Q792,1378,629,1378Q541,1378,506,1347Q471,1316,471,1235L471,659M471,172Q471,98,501,73Q532,49,651,47L651,0L113,0L113,49L127,49Q211,49,236,70Q262,91,262,190L262,209L262,1276Q262,1327,235,1349Q209,1372,147,1372L113,1372L113,1421Q134,1420,155,1419Q176,1419,207,1419Q292,1419,411,1421Q530,1423,563,1423Q887,1423,1034,1326Q1182,1230,1182,1020Q1182,804,1036,704Q891,604,575,604Q552,604,526,604Q500,605,471,606L471,172 Z" />
      <glyph
         id="glyph384-0"
         horiz-adv-x="1114"
         unicode="S"
         d="M188,78L123,4L96,4L96,442L141,442Q155,251,260,141Q365,31,532,31Q663,31,753,115Q844,200,844,322Q844,490,542,601Q496,618,473,627Q292,696,214,790Q137,884,137,1028Q137,1207,258,1326Q380,1446,559,1446Q705,1446,848,1357Q886,1333,897,1333Q908,1333,923,1343Q938,1354,956,1374L985,1374L985,956L944,956Q913,1167,818,1281Q724,1395,582,1395Q467,1395,388,1313Q309,1232,309,1114Q309,1004,370,937Q432,870,612,805Q857,716,938,627Q1020,538,1020,393Q1020,210,890,93Q761,-23,555,-23Q461,-23,370,2Q279,27,188,78 Z" />
      <glyph
         id="glyph386-3"
         horiz-adv-x="1523"
         unicode="T"
         d="M866,172Q866,95,893,70Q920,45,993,45Q998,45,1011,46Q1025,47,1032,47L1032,0L492,0L492,47L524,47Q603,47,631,71Q659,96,659,172L659,1372L606,1372Q564,1372,513,1370Q462,1369,359,1364L293,1360Q231,1356,70,1113Q42,1071,27,1049L0,1067L82,1454Q136,1437,195,1429Q255,1421,354,1421L385,1421L1169,1421Q1269,1421,1329,1429Q1390,1437,1444,1454L1526,1067L1499,1049Q1487,1067,1464,1101Q1294,1356,1230,1360L1167,1364Q1064,1369,1013,1370Q962,1372,920,1372L866,1372L866,172 Z" />
      <glyph
         id="glyph388-8"
         horiz-adv-x="1546"
         unicode="U"
         d="M250,608L250,1241Q250,1331,223,1351Q196,1371,101,1374L100,1421L627,1421L627,1374L575,1374Q500,1374,479,1352Q459,1331,459,1251L459,401Q459,236,564,132Q669,29,836,29Q1048,29,1151,160Q1255,291,1255,559L1255,1184Q1255,1295,1222,1334Q1190,1374,1110,1374L1067,1374L1067,1421L1485,1421L1485,1374L1448,1374Q1375,1374,1345,1334Q1315,1295,1315,1184L1315,537Q1315,254,1183,114Q1052,-25,784,-25Q610,-25,486,33Q363,91,311,197Q278,264,264,350Q250,437,250,608 Z" />
      <glyph
         id="glyph390-0"
         horiz-adv-x="1230"
         unicode="V"
         d="M610,-29L82,1294Q67,1331,47,1349Q27,1367,-2,1370L-63,1374L-63,1421L492,1421L492,1374L428,1370Q363,1365,338,1348Q313,1331,313,1294Q313,1279,317,1262Q321,1245,330,1225L702,283L1039,1197Q1048,1223,1052,1243Q1057,1264,1057,1280Q1057,1330,1019,1351Q981,1372,883,1374L883,1421L1337,1421L1337,1374L1292,1366Q1214,1352,1179,1316Q1144,1281,1106,1180L651,-29L610,-29 Z" />
      <glyph
         id="glyph392-3"
         horiz-adv-x="1773"
         unicode="W"
         d="M72,1294Q59,1330,39,1347Q19,1364,-12,1368L-66,1374L-66,1421L479,1421L479,1372L418,1366Q344,1360,323,1344Q303,1329,303,1294Q303,1274,318,1230Q319,1226,319,1225L657,289L909,1030L807,1294Q792,1330,770,1348Q749,1367,721,1368L645,1372L645,1421L1214,1421L1214,1372L1140,1368Q1087,1365,1061,1347Q1036,1329,1036,1292Q1036,1277,1049,1237Q1052,1228,1053,1224L1354,289L1581,1094Q1584,1105,1591,1127Q1618,1221,1618,1260Q1618,1318,1581,1344Q1545,1370,1459,1372L1458,1421L1896,1421L1896,1374L1841,1364Q1774,1349,1741,1310Q1708,1272,1679,1180L1309,-29L1272,-29L938,940L610,-29L569,-29L72,1294 Z" />
      <glyph
         id="glyph394-0"
         horiz-adv-x="1058"
         unicode="Y"
         d="M643,209L643,193Q643,92,670,70Q698,49,795,49L795,0L281,0L281,49L295,49Q380,49,406,70Q432,92,432,199L432,209L432,643L70,1274Q38,1329,5,1350Q-27,1372,-78,1375L-78,1421L432,1421L432,1375Q353,1372,322,1358Q291,1344,291,1311Q291,1300,295,1287Q300,1275,309,1262L618,733L864,1157Q898,1215,911,1246Q924,1278,924,1300Q924,1340,897,1357Q871,1375,801,1381L801,1421L1163,1421L1163,1374Q1053,1367,963,1212Q955,1198,950,1190L643,678L643,209 Z" />
      <glyph
         id="glyph396-0"
         horiz-adv-x="878"
         unicode="a"
         d="M551,172L551,481Q362,409,290,354Q219,300,219,233Q219,171,263,130Q308,90,375,90Q413,90,451,107Q490,125,551,172M545,121Q469,49,401,13Q333,-23,270,-23Q184,-23,131,27Q78,78,78,160Q78,270,179,351Q280,432,557,532L557,737Q557,801,529,830Q502,860,442,860Q367,860,311,827Q256,794,256,745Q256,653,233,615Q210,578,156,578Q120,578,99,598Q78,618,78,653Q78,737,221,829Q364,922,508,922Q621,922,668,864Q715,807,715,623L715,129Q715,103,726,88Q737,74,756,74Q778,74,792,92Q806,111,809,143L848,143Q839,65,797,23Q756,-18,686,-18Q625,-18,588,18Q551,54,545,121 Z" />
      <glyph
         id="glyph398-2"
         horiz-adv-x="1087"
         unicode="b"
         d="M326,731L326,301Q326,152,379,88Q432,25,551,25Q679,25,760,144Q842,263,842,451Q842,628,761,735Q680,842,549,842Q486,842,430,814Q375,787,326,731M170,1167Q170,1233,151,1262Q132,1291,76,1313L76,1337Q136,1355,195,1379Q254,1404,311,1436L326,1436L326,797Q406,861,477,888Q549,915,631,915Q801,915,906,791Q1012,668,1012,467Q1012,249,886,115Q761,-18,557,-18Q430,-18,287,34Q252,47,244,47Q238,47,232,42Q227,37,221,27L199,-16L170,-16L170,1167 Z" />
      <glyph
         id="glyph400-4"
         horiz-adv-x="909"
         unicode="c"
         d="M850,268Q790,128,694,52Q598,-23,479,-23Q307,-23,191,110Q76,243,76,446Q76,651,198,786Q321,922,506,922Q637,922,735,851Q834,781,834,690Q834,660,810,638Q787,616,756,616Q695,616,665,734Q661,749,659,756Q642,820,610,847Q579,874,524,874Q401,874,320,770Q240,666,240,506Q240,328,330,212Q420,96,553,96Q637,96,704,143Q771,190,819,283L850,268 Z" />
      <glyph
         id="glyph402-2"
         horiz-adv-x="1114"
         unicode="d"
         d="M770,174L770,504Q770,685,709,776Q649,868,528,868Q407,868,332,758Q258,649,258,471Q258,302,345,191Q432,80,561,80Q622,80,674,103Q726,127,770,174M770,1167Q770,1239,747,1267Q724,1296,662,1309L662,1335Q728,1354,790,1379Q852,1404,911,1436L930,1436L930,170Q930,135,945,119Q961,103,1024,86L1024,63Q945,40,890,21Q836,3,791,-14L772,-14L772,121Q707,48,633,11Q560,-25,479,-25Q315,-25,202,109Q90,243,90,442Q90,659,210,787Q331,915,530,915Q580,915,639,904Q698,894,770,872L770,1167 Z" />
      <glyph
         id="glyph404-3"
         horiz-adv-x="995"
         unicode="e"
         d="M618,662Q654,662,671,677Q688,692,688,723Q688,788,634,831Q581,874,498,874Q408,874,342,818Q277,762,250,662L618,662M864,608L242,608Q234,550,230,516Q227,482,227,457Q227,305,327,204Q427,104,575,104Q683,104,767,161Q851,219,889,317L928,305Q879,151,764,62Q650,-27,500,-27Q317,-27,195,100Q74,228,74,422Q74,648,196,784Q319,920,526,920Q674,920,787,833Q901,746,901,649Q901,627,893,617Q885,608,864,608 Z" />
      <glyph
         id="glyph406-3"
         horiz-adv-x="661"
         unicode="f"
         d="M383,158Q383,79,407,59Q432,39,502,39L543,39L543,0L98,0L99,39Q182,42,205,63Q229,84,229,190L229,780L82,780L104,864L229,864L229,950Q229,1177,327,1306Q425,1436,592,1436Q687,1436,748,1389Q809,1342,809,1274Q809,1237,787,1214Q766,1192,729,1192Q695,1192,674,1207Q653,1222,633,1262Q600,1326,576,1345Q552,1364,516,1364Q442,1364,412,1298Q383,1232,383,1004L383,864L606,864L582,780L383,780L383,158 Z" />
      <glyph
         id="glyph408-6"
         horiz-adv-x="964"
         unicode="g"
         d="M272,-39Q226,-67,201,-110Q176,-154,176,-209Q176,-307,249,-357Q323,-408,467,-408Q662,-408,760,-360Q858,-312,858,-217Q858,-137,800,-101Q742,-65,610,-63L438,-63Q376,-63,341,-57Q306,-52,272,-39M471,365Q554,365,600,432Q647,499,647,618Q647,738,600,806Q553,874,471,874Q387,874,340,806Q293,739,293,618Q293,499,340,432Q387,365,471,365M309,340Q265,316,244,285Q223,255,223,215Q223,149,280,121Q338,94,504,92L615,90Q792,87,878,26Q965,-35,965,-158Q965,-305,837,-380Q710,-455,457,-455Q261,-455,156,-398Q51,-342,51,-238Q51,-169,97,-114Q143,-60,238,-16Q180,18,152,58Q125,98,125,147Q125,204,161,255Q197,307,274,360Q208,407,174,469Q141,532,141,610Q141,746,230,833Q320,920,461,920Q539,920,600,900Q662,880,723,836Q761,868,799,885Q838,903,870,903Q911,903,934,882Q958,861,958,825Q958,802,941,785Q925,768,901,768Q879,768,843,793Q807,819,784,819Q772,819,762,817Q753,815,743,811Q775,762,790,715Q805,669,805,618Q805,483,712,399Q620,315,471,315Q437,315,398,321Q359,327,309,340 Z" />
      <glyph
         id="glyph410-9"
         horiz-adv-x="1103"
         unicode="h"
         d="M82,0L82,38Q149,41,172,65Q195,89,195,190L195,1167Q195,1234,176,1261Q157,1289,100,1313L100,1337Q161,1355,219,1379Q278,1404,336,1436L348,1436L348,758Q419,844,487,883Q556,922,639,922Q788,922,858,821Q928,720,928,504L928,141Q928,71,943,57Q959,44,1040,39L1040,0L668,0L668,39Q730,40,752,60Q774,80,774,166L774,176L774,510Q774,691,729,760Q685,829,580,829Q507,829,449,792Q391,756,348,684L348,158Q348,78,370,58Q392,39,461,39L461,0L82,0 Z" />
      <glyph
         id="glyph412-5"
         horiz-adv-x="561"
         unicode="i"
         d="M166,1329Q166,1375,196,1405Q226,1436,272,1436Q317,1436,348,1405Q379,1374,379,1329Q379,1287,347,1255Q315,1223,272,1223Q229,1223,197,1254Q166,1286,166,1329M365,920L365,158Q365,78,387,58Q409,39,477,39L477,0L90,0L91,39Q159,42,180,66Q201,90,201,190L201,651Q201,718,182,745Q163,773,106,797L106,821Q167,839,225,863Q284,888,342,920L365,920 Z" />
      <glyph
         id="glyph414-9"
         horiz-adv-x="1067"
         unicode="k"
         d="M80,0L80,39Q153,42,173,66Q193,90,193,190L193,1167Q193,1236,173,1262Q154,1288,98,1313L98,1337Q159,1355,217,1379Q276,1404,334,1436L348,1436L348,508L643,733Q664,750,677,768Q690,786,690,799Q690,829,616,841Q600,844,589,846L524,858L524,895L979,895L979,858Q848,829,756,757Q753,755,752,754L549,596L891,162Q942,96,988,67Q1035,39,1090,39L1090,0L627,0L627,39L678,45Q708,50,722,60Q737,71,737,88Q737,97,733,104Q730,112,723,121L430,510L348,446L348,158Q348,77,369,58Q391,39,459,39L459,0L80,0 Z" />
      <glyph
         id="glyph416-7"
         horiz-adv-x="555"
         unicode="l"
         d="M358,158Q358,77,380,58Q402,39,469,39L469,0L90,0L91,39Q160,42,181,66Q203,90,203,190L203,1167Q203,1236,183,1262Q164,1288,109,1313L109,1337Q169,1355,227,1379Q286,1404,344,1436L358,1436L358,158 Z" />
      <glyph
         id="glyph418-8"
         horiz-adv-x="1662"
         unicode="m"
         d="M94,0L95,39Q163,42,184,67Q205,93,205,190L205,651Q205,716,186,744Q167,772,109,797L109,821Q169,839,227,863Q286,888,344,920L354,920L354,758Q425,847,492,884Q559,922,649,922Q746,922,814,872Q883,823,909,735Q978,834,1047,878Q1117,922,1204,922Q1287,922,1352,881Q1417,840,1456,764Q1474,731,1481,688Q1489,646,1489,561L1489,504L1489,119Q1489,74,1511,57Q1533,41,1599,39L1599,0L1235,0L1235,38Q1297,40,1317,60Q1337,81,1337,176L1337,551Q1337,700,1291,763Q1246,827,1141,827Q1074,827,1016,786Q959,745,922,670L922,119Q922,74,944,57Q966,41,1034,39L1034,0L668,0L668,39L676,39Q732,39,752,64Q772,90,772,176L772,553Q772,699,725,763Q678,827,573,827Q507,827,450,786Q393,746,354,670L354,158Q354,79,376,59Q398,39,465,39L465,0L94,0 Z" />
      <glyph
         id="glyph420-8"
         horiz-adv-x="1114"
         unicode="n"
         d="M90,39Q170,45,186,62Q203,80,203,166L203,190L201,651Q201,718,182,745Q163,773,106,797L106,821Q170,841,227,865Q285,889,342,920L360,920L356,758Q433,848,499,885Q566,922,647,922Q796,922,865,822Q934,722,934,504L934,115Q934,72,950,58Q967,44,1048,39L1049,0L674,0L674,39Q747,44,763,56Q780,69,780,115L780,176L780,553Q780,695,733,762Q686,829,586,829Q514,829,457,793Q400,757,356,684L356,158Q356,76,378,57Q400,39,467,39L467,0L90,0L90,39 Z" />
      <glyph
         id="glyph422-9"
         horiz-adv-x="983"
         unicode="o"
         d="M492,25Q608,25,674,138Q741,251,741,449Q741,648,675,759Q609,870,492,870Q375,870,308,758Q242,646,242,449Q242,249,308,137Q375,25,492,25M913,449Q913,236,796,105Q680,-25,492,-25Q303,-25,187,105Q72,235,72,449Q72,662,187,791Q302,920,492,920Q681,920,797,790Q913,661,913,449 Z" />
      <glyph
         id="glyph424-4"
         horiz-adv-x="1114"
         unicode="p"
         d="M346,766L346,420Q346,202,397,115Q449,29,569,29Q693,29,778,139Q864,250,864,416Q864,600,770,720Q676,840,537,840Q488,840,443,822Q398,805,346,766M346,-283Q346,-358,372,-380Q399,-403,498,-403L498,-440L78,-440L78,-403Q152,-399,171,-383Q190,-368,190,-305L190,-250L190,651Q190,716,171,744Q152,772,94,797L94,821Q155,839,213,863Q272,888,330,920L346,920L346,817Q412,866,479,889Q547,913,621,913Q805,913,915,792Q1026,671,1026,467Q1026,258,888,117Q751,-23,545,-23Q495,-23,446,-14Q398,-6,346,12L346,-283 Z" />
      <glyph
         id="glyph426-9"
         horiz-adv-x="688"
         unicode="r"
         d="M91,39Q161,42,182,66Q203,91,203,190L203,651Q203,718,183,745Q163,772,106,797L106,821Q175,844,233,868Q291,892,342,920L356,920L356,772Q403,846,459,886Q515,926,571,926Q620,926,648,899Q676,872,676,825Q676,792,656,771Q636,750,606,750Q585,750,541,767Q498,784,473,784Q437,784,404,760Q372,736,356,696L356,158Q356,76,380,57Q405,39,500,39L500,0L90,0L91,39 Z" />
      <glyph
         id="glyph428-4"
         horiz-adv-x="792"
         unicode="s"
         d="M102,45L102,297L143,297Q172,151,224,87Q276,23,362,23Q441,23,491,74Q541,126,541,205Q541,265,505,309Q469,353,365,408Q201,491,157,545Q113,600,113,678Q113,784,193,852Q274,920,403,920Q468,920,530,902Q593,885,653,850L653,633L612,633Q598,745,536,813Q474,881,389,881Q321,881,279,845Q238,809,238,750Q238,665,364,596Q373,591,379,588Q395,579,429,561Q692,420,692,262Q692,137,596,57Q500,-23,350,-23Q285,-23,222,-5Q160,12,102,45 Z" />
      <glyph
         id="glyph430-3"
         horiz-adv-x="755"
         unicode="t"
         d="M221,793L106,793L106,813Q177,865,240,922Q303,980,360,1044L377,1044L377,895L678,895L625,793L377,793L377,270Q377,167,409,123Q442,80,516,80Q552,80,594,101Q637,122,678,160L696,137Q646,61,577,20Q509,-20,430,-20Q316,-20,268,44Q221,108,221,313L221,793 Z" />
      <glyph
         id="glyph432-4"
         horiz-adv-x="1101"
         unicode="u"
         d="M915,895L915,201Q915,135,932,119Q950,104,1010,100L1010,76Q957,58,899,36Q842,14,774,-14L760,-14L760,139Q685,47,619,11Q554,-25,467,-25Q380,-25,314,15Q248,55,215,127Q197,166,189,214Q182,263,182,360L182,393L182,776Q182,823,162,838Q142,854,68,858L68,895L336,895L336,383Q336,196,381,132Q426,68,537,68Q604,68,662,109Q721,151,760,227L760,737Q760,814,740,836Q720,858,659,858L649,858L649,895L915,895 Z" />
      <glyph
         id="glyph434-6"
         horiz-adv-x="935"
         unicode="v"
         d="M422,-18L127,766Q108,816,81,833Q55,851,-2,854L-2,895L414,895L414,854L391,854Q331,854,307,843Q283,833,283,809Q283,802,287,786Q291,770,299,745L506,186L752,745Q758,761,761,774Q764,788,764,801Q764,822,747,834Q730,847,696,850L643,854L643,895L946,895L946,854Q855,844,792,702Q783,682,778,671L467,-18L422,-18 Z" />
      <glyph
         id="glyph436-1"
         horiz-adv-x="1417"
         unicode="w"
         d="M135,748Q111,811,85,831Q59,852,6,855L6,895L401,895L401,854L340,850Q311,848,296,837Q281,827,281,809Q281,798,284,783Q288,768,297,745L512,190L698,672L670,748Q647,806,618,829Q589,853,541,854L541,895L920,895L920,854L873,850Q845,848,830,837Q815,826,815,809Q815,800,818,785Q822,771,829,745L1008,203L1214,745Q1221,761,1224,774Q1227,788,1227,801Q1227,822,1212,834Q1197,846,1165,850L1116,854L1116,895L1405,895L1405,855Q1348,847,1319,824Q1291,802,1266,735L969,-18L928,-18L721,600L475,-18L432,-18L135,748 Z" />
      <glyph
         id="glyph438-3"
         horiz-adv-x="933"
         unicode="y"
         d="M-24,858L-25,895L412,895L412,858L363,854Q308,851,287,839Q266,827,266,801Q266,793,270,782Q274,771,283,755L569,217L741,731Q746,746,749,762Q752,778,752,793Q752,830,722,844Q693,858,604,858L604,895L950,895L950,858Q885,852,857,831Q829,811,801,733L467,-211L465,-217Q386,-442,281,-442Q240,-442,216,-417Q193,-393,193,-352Q193,-318,216,-295Q240,-272,276,-272Q287,-272,310,-277Q334,-283,346,-283Q372,-283,388,-269Q404,-256,416,-223L502,23L106,748Q71,813,44,834Q17,855,-24,858 Z" />
      <glyph
         id="glyph440-9"
         horiz-adv-x="913"
         unicode="z"
         d="M57,0L57,12L610,854L434,854L416,854Q277,854,227,814Q177,775,115,655L72,664L139,895L819,895L819,883L268,45L461,45Q581,45,623,53Q666,61,684,82Q716,117,755,175Q794,233,827,297L858,283L795,0L57,0 Z" />
      <glyph
         id="glyph442-7"
         horiz-adv-x="516"
         unicode="’"
         d="M174,944Q254,1016,289,1066Q324,1117,324,1161Q324,1201,261,1222Q244,1228,235,1231Q183,1250,159,1277Q135,1305,135,1346Q135,1390,166,1418Q197,1446,246,1446Q316,1446,363,1386Q410,1327,410,1235Q410,1145,359,1064Q308,983,205,907L174,944 Z" />
      <glyph
         id="glyph444-7"
         horiz-adv-x="901"
         unicode="“"
         d="M735,1411Q653,1337,618,1287Q584,1237,584,1194Q584,1154,647,1133Q662,1128,672,1124Q724,1105,749,1076Q774,1048,774,1008Q774,963,743,935Q713,907,664,907Q593,907,545,967Q498,1027,498,1118Q498,1207,549,1288Q600,1369,705,1446L735,1411M350,1411Q270,1339,235,1288Q201,1238,201,1194Q201,1154,264,1133Q279,1128,289,1124Q341,1105,366,1076Q391,1048,391,1008Q391,963,360,935Q330,907,281,907Q210,907,162,967Q115,1027,115,1118Q115,1208,165,1289Q216,1370,319,1446L350,1411 Z" />
      <glyph
         id="glyph446-1"
         horiz-adv-x="901"
         unicode="”"
         d="M557,944Q639,1018,674,1068Q709,1118,709,1161Q709,1201,646,1222Q629,1228,620,1231Q568,1250,543,1278Q518,1306,518,1346Q518,1390,549,1418Q580,1446,629,1446Q700,1446,747,1386Q795,1326,795,1235Q795,1146,743,1065Q692,984,588,907L557,944M174,944Q254,1016,289,1066Q324,1117,324,1161Q324,1201,261,1222Q244,1228,235,1231Q183,1250,159,1277Q135,1305,135,1346Q135,1390,166,1418Q197,1446,246,1446Q316,1446,363,1386Q410,1327,410,1235Q410,1145,359,1064Q308,983,205,907L174,944 Z" />
      <glyph
         id="glyph448-2"
         horiz-adv-x="1024"
         unicode="–"
         d="M0,379L0,516L1024,516L1024,379L0,379 Z" />
    </font>
    <font
       vert-adv-y="90"
       vert-origin-y="90"
       vert-origin-x="45"
       horiz-origin-y="0"
       horiz-origin-x="0"
       id="font450-6"
       horiz-adv-x="0">
      <font-face
         id="font-face452-4"
         font-family="fnt1"
         ascent="626"
         units-per-em="1000"
         descent="-142" />
      <missing-glyph
         id="missing-glyph454-0"
         horiz-adv-x="1.1346e-306" />
      <glyph
         id="glyph456-1"
         horiz-adv-x="600"
         unicode="A"
         d="M596,0L596,93L540,93L344,572L103,572L103,479L226,479L63,93L4,93L4,0L242,0L242,93L156,93L185,161L417,161L446,93L363,93L363,0L596,0M380,254L224,254L302,439L380,254 Z" />
      <glyph
         id="glyph458-7"
         horiz-adv-x="600"
         unicode="E"
         d="M551,0L551,209L458,209L458,93L219,93L219,245L325,245L325,179L418,179L418,403L325,403L325,337L219,337L219,479L458,479L458,360L551,360L551,572L50,572L50,479L127,479L127,93L48,93L48,0L551,0 Z" />
      <glyph
         id="glyph460-3"
         horiz-adv-x="600"
         unicode="N"
         d="M605,479L605,572L343,572L343,479L436,479L436,175L193,572L14,572L14,479L90,479L90,93L14,93L14,0L279,0L279,93L182,93L182,408L440,0L528,0L528,479L605,479 Z" />
      <glyph
         id="glyph462-5"
         horiz-adv-x="600"
         unicode="O"
         d="M566,285C566,426,478,583,302,583C136,583,36,438,36,283C36,83,174,-12,302,-12C401,-12,566,60,566,285M475,289C475,206,430,79,302,79C187,79,130,186,130,286C130,380,188,490,302,490C433,490,475,360,475,289 Z" />
      <glyph
         id="glyph464-2"
         horiz-adv-x="600"
         unicode="R"
         d="M578,0L578,93L503,93L388,245L427,257C479,273,521,333,521,404C521,463,495,519,442,549C407,569,363,572,322,572L50,572L50,479L125,479L125,93L46,93L46,0L291,0L291,93L217,93L217,227L294,227L382,105C406,72,428,35,444,0L578,0M430,403C430,324,351,320,307,320L217,320L217,479L341,479C366,479,430,476,430,403 Z" />
      <glyph
         id="glyph466-1"
         horiz-adv-x="600"
         unicode="Y"
         d="M583,479L583,572L353,572L353,479L407,479L305,310L204,479L256,479L256,572L26,572L26,479L101,479L257,221L257,93L136,93L136,0L469,0L469,93L350,93L350,221L506,479L583,479 Z" />
      <glyph
         id="glyph468-6"
         horiz-adv-x="600"
         unicode="Z"
         d="M527,0L527,234L435,234L435,93L200,93L505,506L505,572L80,572L80,353L172,353L172,479L377,479L76,71L76,0L527,0 Z" />
    </font>
    <font
       vert-adv-y="90"
       vert-origin-y="90"
       vert-origin-x="45"
       horiz-origin-y="0"
       horiz-origin-x="0"
       id="font470-2"
       horiz-adv-x="0">
      <font-face
         id="font-face472-6"
         font-family="fnt2"
         ascent="712"
         units-per-em="1000"
         descent="-232" />
      <missing-glyph
         id="missing-glyph474-8"
         horiz-adv-x="1.1346e-306" />
      <glyph
         id="glyph476-5"
         horiz-adv-x="713"
         unicode="A"
         d="M-5,0L159,0L209,152L486,152L544,0L718,0L442,715L267,715L-5,0M450,272L252,272L329,500C332,509,340,542,350,599C359,547,366,515,370,503L450,272 Z" />
      <glyph
         id="glyph478-7"
         horiz-adv-x="571"
         unicode="E"
         d="M80,0L501,0L501,130L233,130L233,309L501,309L501,439L233,439L233,586L501,586L501,715L80,715L80,0 Z" />
      <glyph
         id="glyph480-8"
         horiz-adv-x="775"
         unicode="H"
         d="M80,0L233,0L233,299L543,299L543,0L696,0L696,715L543,715L543,428L233,428L233,715L80,715L80,0 Z" />
      <glyph
         id="glyph482-9"
         horiz-adv-x="606"
         unicode="R"
         d="M233,410L233,598L256,598C353,598,408,584,408,501C408,418,351,410,256,410L233,410M597,0L400,325C493,337,559,413,559,512C559,647,473,715,299,715L80,715L80,0L233,0L233,334L421,0L597,0 Z" />
      <glyph
         id="glyph484-0"
         horiz-adv-x="542"
         unicode="T"
         d="M347,585L523,585L523,715L19,715L19,585L194,585L194,0L347,0L347,585 Z" />
    </font>
</defs>
</svg>
